Полезно: НОВОСТИ Главная | ФОРУМ | Статьи | Обучающее видео | Видео | Вопрос-ответ | Ссылки | ПОИСК по сайту
Скачать: Пресеты ProChannel | Instrument Definitions | Studioware Panels | Шаблоны проектов | Обои | CAL-скрипты | Русификатор Sonar | Сэмплы | SONAR Themes | Cakewalk Sonar скачать

Автор Тема: Беда с конвертацией!  (Прочитано 2178 раз)

Cardiac

  • Новичок форума
  • *
  • Сообщений: 7
  • Репутация: 0
  • готов к войне
Беда с конвертацией!
« : 22 Сентябрь, 2011, 10:33:21 »
Здравствуйте!
Скачал файл ...dts_cd.rar, внутри "нашел" *.cue и *.wav. Если этот *.wav открыть в медиаплеере (исп. VLC media player), то играет себе музыка.
При попытке разрезать этот *.wav (исп. Medieval CUE Splitter) - сплиттер ругается см. рис. 1
Если же попытаться открыть этот файл в других программах, то они (исп. Sound Forge Pro 10.0 и SONAR X1 Producer) выдают стерео отличного шума см. рис.2 3 и 3
При конвертации тот же шум на выходе.
 :_zadacha:
Требуется получить нарезанные МР3.
Подскажите, плз, что можно сделать?
Была похожая ситуация (тот же шум после конвертации), однако все разрезалось и открывалось в Forge (24/96)  - сделал ресэмплинг и все ОК, а тут....
Что было пороками, теперь нравы.
                                          Сенека

SKIFF

  • Активный участник форума
  • ***
  • Сообщений: 599
  • Репутация: 45
  • I love Guitar,Sax
Re: Беда с конвертацией!
« Ответ #1 : 22 Сентябрь, 2011, 11:00:48 »
Если не получается конвертить то как вариант переписать с плеера онлайн при включеной записи в форж или сонар под WDM  дровами
St Monitors- Behringer 3031a  'Soundcard-EMU 0404USB  'PMH660M'  PAMP-Soundking-2*500WTT'  PW - monitors PV  2*500 'SoloGuitar- EpiphoneGibson+guitar processor'  Bass GT- Peavey' MIDI-Axiom-61'     Mike Shure-85*2.   Bhr-C-3 'Tube preamp+Tube Opt. .Compress+TubeEQ' .Acc/Flute.Harp.Bong's   and altosax , xaphoon

Cardiac

  • Новичок форума
  • *
  • Сообщений: 7
  • Репутация: 0
  • готов к войне
Re: Беда с конвертацией!
« Ответ #2 : 22 Сентябрь, 2011, 12:00:15 »
Ну. прикинь, это двухдисковый концертник. Долго же!
Что было пороками, теперь нравы.
                                          Сенека

kot666

  • Активный участник форума
  • ***
  • Сообщений: 356
  • Репутация: 21
Re: Беда с конвертацией!
« Ответ #3 : 23 Сентябрь, 2011, 10:50:13 »
попробуй Easy CD-DA extractor. тоже кучу форматов ест и cue поддерживает. а еще поищи гдето работающий  cue файл и попробуй свой отредактировать с помощью простого блокнота. возможно он просто неправильно написан.

хаха судя по скринам это Пинк Флойд - Пульс. не проще ли найти и качнуть на торренте мп3 формат ??

Cardiac

  • Новичок форума
  • *
  • Сообщений: 7
  • Репутация: 0
  • готов к войне
Re: Беда с конвертацией!
« Ответ #4 : 23 Сентябрь, 2011, 11:29:56 »
попробуй Easy CD-DA extractor. тоже кучу форматов ест и cue поддерживает. а еще поищи гдето работающий  cue файл и попробуй свой отредактировать с помощью простого блокнота. возможно он просто неправильно написан.

хаха судя по скринам это Пинк Флойд - Пульс. не проще ли найти и качнуть на торренте мп3 формат ??


Спасибо за реакцию!
Конечно, я уже облазил кучу форумов и, в конце концов, победил эту гадину с помощью проги Foobar2000. После этого Forge 10 открыл 6 каналов, легко сделал стерео и, собсна, всё. Cue, правда, всё равно не работает. Как его редактировать - не знаю. Как-то раз редактировал другой КУЕ, так там ошибка была очевидной, а здесь - не вижу. Ну,да, порежу в Сонаре.
А торренты меня угнетают...
Что было пороками, теперь нравы.
                                          Сенека

gmsalex

  • Участник форума
  • **
  • Сообщений: 81
  • Репутация: 1
Re: Беда с конвертацией!
« Ответ #5 : 09 Сентябрь, 2012, 14:15:38 »
Сам с флойдом намучился в свое время.
Проблему решила программа DVD Decrypter.
Умеет отлично снимать защищенные диски.

Mogol

  • Активный участник форума
  • ***
  • Сообщений: 196
  • Репутация: 90
  • Алексей Иванович
    • RMM
Re: Беда с конвертацией!
« Ответ #6 : 09 Сентябрь, 2012, 19:36:28 »
Внимание!!! Файл CUE и звуковой файл должны лежать в одной директории (т.е. в одной папке). Имена файла CUE и звукового файла должны быть одинаковы.  Расширение, прописанное в CUE-файле и аудиофайла должно совпадать. Если файл CUE не разбивается или программа сообщает, что не может найти данный файл, нужно проверить данный файл.
Открываем CUE-файл с помощью программы блокнот и смотрим строку с расширением CUE-файла.

см. 3-строка

Файл CUE открытый с помощью программы блокнот

PERFORMER "Красные Маки"
TITLE "Доктор Шлягер"
FILE "Доктор Шлягер”.wav" WAVE
  TRACK 01 AUDIO
    TITLE "Если не расстанемся"
    INDEX 01 00:00:00
  TRACK 02 AUDIO
    TITLE "Анютины глазки"
    INDEX 01 03:59:62
  TRACK 03 AUDIO
    TITLE "Из-за тебя"
------------------------------------------------
см. 7-строка

Файл CUE открытый с помощью программы блокнот

REM GENRE Jazz
REM DATE 2002
REM DISCID 7D0BA60A
PERFORMER "Horonko - Orkestr"
TITLE "Strashnye Pesni"
FILE "Horonko - Orkestr - Strashnye Pesni.ape" WAVE
  TRACK 01 AUDIO
    TITLE "Chubchik"
    PERFORMER "Horonko - Orkestr"
    FLAGS DCP
    INDEX 01 00:00:00
  TRACK 02 AUDIO
----------------------------------------------------------------------
В этой строчке и нужно поменять данное расширение (или APE, или FLAC, или WAV) в зависимости от расширения самого аудиофайла.
Если аудиофайл APE, то и CUE-файл должен быть прописан как APE и т.д. Советую прописывать файл как .wav, тогда можно разбить как FLAC,
так и APE файлы. Ведь FLAC и APE всего лишь определенный тип архивирования файла WAV.
Если программа Medieval CUE Splitter говорит вам, что все равно не находит данный файл, попробуйте в этой же строке найти орфографические ошибки и исправьте
их (но это бывает очень редко, хотя бывает). В принципе CUE-файл можно поправить и самому. Действуйте по принципу “чтобы было похоже”.
То есть – возьмите хороший CUE-файл и сравните его с битым. Вы сразу можете увидеть похожи ли данные файлы по структуре или нет.
Если они не похожи, попробуйте исправить. Совет: создайте копию и работайте с копиями файлов (если не получилось можно выбросить).
ASUS X99 Deluxe, i7-5820K, 64Gb ОЗУ), Win 81Pro_x64, Cubase Pro 8.5, WaveLab 9.0, VePro5, MR816CSX, UR824 (ADAT -> MR816)...


 


Новые сообщения на форуме

Добавить страницу в закладки, поделиться с друзьями.....

Разделы форума


⦁ Sonar. Работа с аудио
Подразделы: Запись и обработка вокала, Запись и обработка гитары, Барабаны, Электронная и танцевальная музыка, Hip-Hop, RNB
⦁ Sonar. Работа с MIDI, контроллеры, автоматизация
⦁ Sonar. Работа с видео
⦁ Sonar и VST эффекты, инструменты, ProChannel, Rewire
⦁ Sonar и музыкальное оборудование
⦁ Sonar. Настройка. Общие вопросы
⦁ Другие программы для создания музыки и совместное их использование с Sonar
⦁ О звуке, сведение, мастеринг, акустическая отделка помещений
⦁ Сэмплы, библиотеки для инструментов
⦁ Творчество
Подразделы: Школа
⦁ Шоубизнес, продвижение творчества, промоушн, авторское право. Концерты, конкурсы, фестивали, релизы альбомов
⦁ Обсуждение сайта
⦁ Другое. Разговоры на общие темы
⦁ Продам - куплю
⦁ Предложения о сотрудничестве, поиск музыкантов



При перепечатке материалов сайта, активная ссылка на SonarMusic.ru обязательна. © 2007-2016 SonarMusic.ru
Этот сайт никаким образом не связан с BandLab и не является их подразделением. This site is not affiliated with or endorsed by BandLab.
Присоединяйтесь к нам:
vk youtube facebook twitter

Видео на русском:

Смотрите также: